MPEG-4 Visual A卡用Potplayer如何开启硬解,用什么解码器?

Format : MPEG-4
Format profile : Base Media
Codec ID : isom
File size : 429 MiB
Duration : 3mn 17s
Overall bit rate : 18.2 Mbps
Movie name : 裝置
Writing application : Lavf54.0.100

Video
ID : 1
Format : MPEG-4 Visual
Format settings, BVOP : No
Format settings, QPel : No
Format settings, GMC : No warppoints
Format settings, Matrix : Default (H.263)
Codec ID : 20
Duration : 3mn 17s
Bit rate mode : Constant
Bit rate : 17.9 Mbps
Width : 1 280 pixels
Height : 720 pixels
Display aspect ratio : 16:9
Frame rate mode : Constant
Frame rate : 50.000 fps
Color space : YUV
Chroma subsampling : 4:2:0
Bit depth : 8 bits
Scan type : Progressive
Compression mode : Lossy
Bits/(Pixel*Frame) : 0.389
Stream size : 421 MiB (98%)
Writing library : Lavc54.1.100

Audio
ID : 2
Format : MPEG Audio
Format version : Version 1
Format profile : Layer 3
Mode : Joint stereo
Codec ID : 6B
Duration : 3mn 17s
Bit rate mode : Constant
Bit rate : 320 Kbps
Channel(s) : 2 channels
Sampling rate : 44.1 KHz
Compression mode : Lossy
Stream size : 7.52 MiB (2%)
Writing library : LAME
如上图所示的视频编码,求问用Potplayer,用什么解码器怎么设置开启硬解,win7 32位 显卡HD6290集显。

评论 (0)链接2012-08-21 
德问是一个专业的编程问答社区,请 登录注册 后再提交答案